RAY DONOVAN supernatural UFC killing eve ıt 2017 ITA 2018 manifest mom A Star is born great british bake off s09e10 Manifest S01E10 you Roma ITA Outlander dtone star trek discovery 2160p Venom green book bohemian rhapsody tushyraw 1080p.mp4-ktr doctor who evo Aquaman XXX the walking dead etmovies IT Hindi tushy 18.12 1080p.mp4-ktr gotham 0 1080p 2018 young sheldon fgt The Big Bang Theory titans ethd porn bohemian lucifer arrow español Anal family guy 1080p YIFY ncis ETRG uhd bbc bohemian rhapsody ita vikings arrow 2018 ita aquaman ita big bang theory man g ettv Game of thrones young justice hin bumblebee windows 10 wwe madam secretary luther etrg 1080p ddr 
Warning! Do not Download Without a VPN!
Your IP Address is .   Location is
Download and surf securely, stream unlimited and protect your personal data!
We strongly recommend using SpyOFF VPN!
Become Anonymous with SpyOFF
ETTV Recommended TV Shows
Lethal.Weapon.S03E11.WEB.x264-TBS[ettv] torrent
NCIS.S16E11.HDTV.x264-SVA[ettv] torrent
The.Gifted.S02E11.WEB.x264-TBS[ettv] torrent
The.Rookie.S01E09.HDTV.x264-KILLERS[ettv] torrent

ETTV Recommended SD
The.Vice.2018.DVDScr.Xvid.AC3.HQ.Hive-CM8[EtMovies] torrent
Still.2019.HDRip.XViD-ETRG torrent
The Hate U Give.2018.HDRip.XViD.AC3-ETRG torrent
The.Last.Boy.2019.HDRip.XviD.AC3-EVO torrent

ETTV Recommended HD
Space Battleship Yamato 2010.Multi.USA.1080p.Bluray.HEVC.TrueHD.5.1-DTOne torrent
Time.Freak.2018.BluRay.1080p.HEVC.DTS-HD.MA5.1-DTOne torrent
Solis 2018 1080p GER Blu-ray HEVC DTS-HD MA 5 1-DTOne torrent
Speed Kills 2018 1080p Blu-ray HEVC DTS-HD MA 5 1-DTOne torrent

ETTV Recommended UHD
Night School 2018.Multi.UHD.2160p.Bluray.x265.HDR.DTS-HDMA.7.1-DTOne torrent
Bad Times at the EL Royale 2018.Multi.UHD.2160p.Bluray.x265.HDR.Atmos.7.1-DTOne torrent
I.Still.See.You.2018.UHD.2160p.UHDRip.x265.HDR.DTS-HDMA.5.1-DTOne torrent
Journey.to.the.South.Pacific.2013.2160p.UHD.BluRay.x265.HDR.DTS-X-DTOne torrent

ETTV Recommended Cam
The Mule 2018 HDCAM XViD.AC3-ETRG torrent
Bumblebee 2018 NEW HDTS x264 AC3-ETRG torrent
Aquaman.2018.BLURRED.HDTC.x264.AC3-ETRG torrent
Once Upon a Deadpool 2018 NEW 720p HDCAM-1XBET torrent

ETTV Recommended Foreign
Venom.2018.Multi.UHD.Bluray.2060p.x265.HDR.Atmos.7.1.[En+Desi]-DTOne torrent
Manto.(2018).1-3.DVDRip.x264.AC3.5.1.ESub-DTOne torrent
Ninnu Kori.2017.1080p.AMZN.WeB.DL.H264.DDP.5.1.DTOne torrent
Iceman The Time Traveller 2018.Chinese.Bluray.1080p.TrueHD.5.1-DTOne torrent


Download Torrent "The Orville S02E01 Jaloja 1080p Webrip x265 AC3 5.1 Goki [SEV]"

IMDB Details
Description:

An exploratory ship from Earth faces intergalactic challenges 400 years in the future.

Genre:

Adventure, Comedy, Drama

Download Torrent (Magnet)
Download Torrent (File)
Seeds: 227
Leechers: 159
Completed: 3,226 
Last Checked: 02-01-2019 02:27:26


Details
Title:The Orville S02E01 Jaloja 1080p Webrip x265 AC3 5.1 Goki [SEV]
Description:








Media Information

Unique ID                                : 296915239716278892388703553827194554732 (0xDF5FCB8C6C88A00E9C7D8D8D4D5C496C)
Complete name                            : The Orville S02E01 Jaloja 1080p Webrip x265 AC3 5.1 Goki [SEV].mkv
Format                                   : Matroska
Format version                           : Version 4
File size                                : 1.28 GiB
Duration                                 : 48 min 25 s
Overall bit rate                         : 3 783 kb/s
Encoded date                             : UTC 2019-01-01 21:42:49
Writing application                      : mkvmerge v28.2.0 ('The Awakening') 64-bit
Writing library                          : libebml v1.3.6 + libmatroska v1.4.9

Video
ID                                       : 1
Format                                   : HEVC
Format/Info                              : High Efficiency Video Coding
Format profile                           : Main [email protected]@Main
Codec ID                                 : V_MPEGH/ISO/HEVC
Duration                                 : 48 min 25 s
Bit rate                                 : 3 141 kb/s
Width                                    : 1 920 pixels
Height                                   : 1 080 pixels
Display aspect ratio                     : 16:9
Frame rate mode                          : Constant
Frame rate                               : 23.976 (24000/1001) FPS
Color space                              : YUV
Chroma subsampling                       : 4:2:0
Bit depth                                : 10 bits
Bits/(Pixel*Frame)                       : 0.063
Stream size                              : 1.06 GiB (83%)
Writing library                          : x265 2.9+8-27d8424c799d:[Windows][MSVC 1915][64 bit] 10bit
Encoding settings                        : cpuid=1111039 / frame-threads=3 / numa-pools=8 / wpp / no-pmode / no-pme / no-psnr / no-ssim / log-level=2 / input-csp=1 / input-res=1920x1080 / interlace=0 / total-frames=0 / level-idc=0 / high-tier=1 / uhd-bd=0 / ref=4 / no-allow-non-conformance / no-repeat-headers / annexb / no-aud / no-hrd / info / hash=0 / no-temporal-layers / open-gop / min-keyint=23 / keyint=250 / gop-lookahead=0 / bframes=8 / b-adapt=2 / b-pyramid / bframe-bias=0 / rc-lookahead=100 / lookahead-slices=4 / scenecut=40 / radl=0 / no-intra-refresh / ctu=64 / min-cu-size=8 / no-rect / no-amp / max-tu-size=32 / tu-inter-depth=1 / tu-intra-depth=1 / limit-tu=0 / rdoq-level=2 / dynamic-rd=0.00 / no-ssim-rd / signhide / no-tskip / nr-intra=0 / nr-inter=0 / no-constrained-intra / no-strong-intra-smoothing / max-merge=3 / limit-refs=3 / limit-modes / me=3 / subme=5 / merange=57 / temporal-mvp / weightp / no-weightb / no-analyze-src-pics / deblock=0:0 / sao / no-sao-non-deblock / rd=4 / no-early-skip / rskip / no-fast-intra / no-tskip-fast / no-cu-lossless / no-b-intra / no-splitrd-skip / rdpenalty=0 / psy-rd=1.30 / psy-rdoq=2.00 / no-rd-refine / no-lossless / cbqpoffs=0 / crqpoffs=0 / rc=crf / crf=20.0 / qcomp=0.60 / qpstep=4 / stats-write=0 / stats-read=0 / ipratio=1.40 / pbratio=1.30 / aq-mode=2 / aq-strength=1.10 / cutree / zone-count=0 / no-strict-cbr / qg-size=32 / no-rc-grain / qpmax=69 / qpmin=0 / no-const-vbv / sar=1 / overscan=0 / videoformat=5 / range=0 / colorprim=2 / transfer=2 / colormatrix=2 / chromaloc=0 / display-window=0 / max-cll=0,0 / min-luma=0 / max-luma=1023 / log2-max-poc-lsb=8 / vui-timing-info / vui-hrd-info / slices=1 / no-opt-qp-pps / no-opt-ref-list-length-pps / no-multi-pass-opt-rps / scenecut-bias=0.05 / no-opt-cu-delta-qp / no-aq-motion / no-hdr / no-hdr-opt / no-dhdr10-opt / no-idr-recovery-sei / analysis-reuse-level=5 / scale-factor=0 / refine-intra=0 / refine-inter=0 / refine-mv=0 / no-limit-sao / ctu-info=0 / no-lowpass-dct / refine-mv-type=0 / copy-pic=1 / max-ausize-factor=1.0 / no-dynamic-refine / no-single-sei
Language                                 : English
Default                                  : Yes
Forced                                   : No

Audio
ID                                       : 2
Format                                   : E-AC-3
Format/Info                              : Enhanced AC-3
Commercial name                          : Dolby Digital Plus
Codec ID                                 : A_EAC3
Duration                                 : 48 min 25 s
Bit rate mode                            : Constant
Bit rate                                 : 640 kb/s
Channel(s)                               : 6 channels
Channel layout                           : L R C LFE Ls Rs
Sampling rate                            : 48.0 kHz
Frame rate                               : 31.250 FPS (1536 SPF)
Compression mode                         : Lossy
Delay relative to video                  : 2 ms
Stream size                              : 222 MiB (17%)
Language                                 : English
Service kind                             : Complete Main
Default                                  : Yes
Forced                                   : No

Text #1
ID                                       : 3
Format                                   : UTF-8
Codec ID                                 : S_TEXT/UTF8
Codec ID/Info                            : UTF-8 Plain Text
Bit rate                                 : 0 b/s
Count of elements                        : 0
Stream size                              : 0.00 Byte (0%)
Title                                    : Blank
Language                                 : English
Default                                  : Yes
Forced                                   : No

Text #2
ID                                       : 4
Format                                   : UTF-8
Codec ID                                 : S_TEXT/UTF8
Codec ID/Info                            : UTF-8 Plain Text
Duration                                 : 48 min 22 s
Bit rate                                 : 95 b/s
Count of elements                        : 1029
Stream size                              : 33.9 KiB (0%)
Title                                    : English
Language                                 : English
Default                                  : No
Forced                                   : No






We have no issue with individuals posting or re-uploading our torrents on a platform we aren't on. However, if this is something you'd like to do, please do so in a 'as-is' format. We ask that you do not create a new torrent, include all descriptions you see above including the SEV logo, tags, notes and screenshots. If you'd like to become a permanent poster on a website we don't post to, feel free to get in contact with a Sublime Encoded Video member.


We are recruiting/training new members for SEV & seedbox providers as well as people to help out with subtitles. 
As you already know, we deliver quality, so you know the standard. 
If you're interested, feel free to contact any of the team members.

Category:TV > HEVC/x265
Lang:English  English
Total Size:1.28 GB
Info Hash:6b79a2b1e3389bb4342f74b821553ba63da39e9f
Added By:D0ct0rLew
Date Added:02-01-2019 02:27:21

Files

File List: 
 File Size
The Orville S02E01 Jaloja 1080p Webrip x265 AC3 5.1 Goki [SEV].mkv1.28 GB



Loading...
Comments

There are currently no comments. Be the first one to write something !

Disclaimer: None of the files shown here are actually hosted or transmitted by this server. The links are provided solely by this site's users. The site moderation is also a service provided by the site's users. The administrator of this site (ettv.tv) cannot be held responsible for what its users post, or any other actions of its users. You may not use this site to distribute or download any material when you do not have the legal rights to do so. It is your own responsibility to adhere to these terms.

Sitemap