macchine mortali Bohemian Rhapsody ita mary poppins lethal weapon arrow 0 1 hindi 2018 the walking Dead ddr venom 2160P The Big Bang theory vikings tushyraw 1080p.mp4-ktr bbc The Gifted s02e10 A Star is born bird box Bandersnatch Luther Titans IT WWE blackkklansman ethd Doctor who Xxx ıt 2017 supernatural gifted etrg ita hindi orville dtone game of thrones ncis etmovies great british bake off s09e10 lethal weapon s03e10 2018 ita The Gifted serendipity ita arrow español Venom ITA ray donovan 1080p 2018 black mirror YOU Bumblebee formula 1 2018 Bohemian Rhapsody anal uhd ita 2018 the flash 1080p Avengers aquaman Ettv big bang theory español tushy 18.12 1080p.mp4-ktr fgt AQUAMAN ita evo Outlander Ethd star trek discovery español 
Warning! Do not Download Without a VPN!
Your IP Address is .   Location is
Download and surf securely, stream unlimited and protect your personal data!
We strongly recommend using SpyOFF VPN!
Become Anonymous with SpyOFF
ETTV Recommended TV Shows
Luther.S05E02.HDTV.x264-MTB[ettv] torrent
Vikings.S05E16.HDTV.x264-LucidTV[ettv] torrent
SEAL.Team.S02E11.HDTV.x264-LucidTV[ettv] torrent
Criminal.Minds.S14E11.HDTV.x264-LucidTV[ettv] torrent

ETTV Recommended SD
State.Like.Sleep.2019.HDRip.XViD-ETRG torrent
The.Favourite.2018.DVDScr.Xvid.AC3.HQ.Hive-CM8[EtMovies] torrent
Fear Level.2018.HDRip.XviD.AC3-EVO torrent
Lifechanger.2018.HDRip.XViD-ETRG torrent

ETTV Recommended HD
Taylor.Swift.Reputation.Stadium.Tour.2018.1080p.NF.WEB-DL.DDP5.1.x264-NTG[EtHD] torrent
Hell Fest 2018.Multi.1080p.Bluray.HEVC.DTS-HDMA.7.1-DTOne torrent
The Demonologist.2019.1080p.WEB-DL.H264.AC3-EVO[EtHD] torrent
Henchmen.2018.1080p.WEB-DL.H264.AC3-EVO[EtHD] torrent

ETTV Recommended UHD
Baywatch 2017 Extended UHD 2160p Blu-ray x265 HDR Atmos 7.1[En+Hi]-DTOne torrent
Passengers.2016.2160p.UHD.BluRay.x265.HDR.Atmos.7.1.[En+Hi]-DTOne torrent
Salt.2010.2160p.UHD.BluRay.x265.HDR.Atmos.7.1.[En+Hi]-DTOne torrent
Star.Trek.2009.Multi.2160p.UHD.BluRay.x265.HDR.Atmos.7.1[En+Hi+]-DTOne torrent

ETTV Recommended Cam
Mary Poppins Returns.2018.HDCAM.XViD.AC3-ETRG torrent
The Mule 2018 HDCAM XViD.AC3-ETRG torrent
Bumblebee 2018 NEW HDTS x264 AC3-ETRG torrent
Aquaman.2018.BLURRED.HDTC.x264.AC3-ETRG torrent

ETTV Recommended Foreign
Sarkar.2018.480p.WeB.DL.AAC.AVC.DTOne torrent
Eedu Gold Ehe (2016) 720p UNCUT HDRip x264 [Dual Audio] [Hindi DD 2.0 - Telugu 2.0] Exclusive By -=!Dr.STAR!=- torrent
Rachayitha..2018.480p.WeB.DL.AAC.AVC.DTOne torrent
Venom 2018 BluRay Dual Audio [Hindi 5.1+English] 720p x264 ESub - mkvCinemas [Telly] torrent


Download Torrent "The Orville S02E01 Jaloja (1080p AMZN WEB-DL x265 HEVC 10bit AAC 5.1 Joy) [..."

IMDB Details
Description:

N/A

Genre:

N/A

Download Torrent (Magnet)
Download Torrent (File)
Seeds: 1,199
Leechers: 93
Completed: 14,137 
Last Checked: 01-01-2019 03:54:59


Loading...
Details
Title:The Orville S02E01 Jaloja (1080p AMZN WEB-DL x265 HEVC 10bit AAC 5.1 Joy) [...
Description:





Media Information
General
Format                                   : Matroska
Format version                           : Version 4 / Version 2
File size                                : 482 MiB
Duration                                 : 48 min 25 s
Overall bit rate                         : 1 393 kb/s
Movie name                               : The Orville S02E01 Jaloja  (1080p x265 10bit Joy)
Encoded date                             : UTC 2018-12-31 21:57:36
Writing application                      : mkvmerge v28.2.0 ('The Awakening') 64-bit
Writing library                          : libebml v1.3.6 + libmatroska v1.4.9
Writing frontend                         : StaxRip v2.0, a JoyBell Encode

Video
ID                                       : 1
Format                                   : HEVC
Format/Info                              : High Efficiency Video Coding
Format profile                           : Main [email protected]@Main
Codec ID                                 : V_MPEGH/ISO/HEVC
Duration                                 : 48 min 25 s
Bit rate                                 : 1 201 kb/s
Width                                    : 1 920 pixels
Height                                   : 1 080 pixels
Display aspect ratio                     : 16:9
Frame rate mode                          : Constant
Frame rate                               : 23.976 (24000/1001) FPS
Color space                              : YUV
Chroma subsampling                       : 4:2:0
Bit depth                                : 10 bits
Bits/(Pixel*Frame)                       : 0.024
Stream size                              : 416 MiB (86%)
Writing library                          : x265 2.9+15-81373aab81df:[Windows][MSVC 1916][64 bit] 10bit
Encoding settings                        : cpuid=1111039 / frame-threads=3 / numa-pools=12 / wpp / no-pmode / no-pme / no-psnr / ssim / log-level=2 / input-csp=1 / input-res=1920x1080 / interlace=0 / total-frames=69664 / level-idc=0 / high-tier=1 / uhd-bd=0 / ref=4 / no-allow-non-conformance / no-repeat-headers / annexb / no-aud / no-hrd / info / hash=0 / no-temporal-layers / open-gop / min-keyint=23 / keyint=250 / gop-lookahead=0 / bframes=4 / b-adapt=2 / b-pyramid / bframe-bias=0 / rc-lookahead=80 / lookahead-slices=4 / scenecut=40 / radl=0 / no-splice / no-intra-refresh / ctu=64 / min-cu-size=8 / no-rect / no-amp / max-tu-size=32 / tu-inter-depth=1 / tu-intra-depth=1 / limit-tu=0 / rdoq-level=2 / dynamic-rd=0.00 / ssim-rd / signhide / no-tskip / nr-intra=0 / nr-inter=0 / no-constrained-intra / strong-intra-smoothing / max-merge=3 / limit-refs=3 / limit-modes / me=3 / subme=3 / merange=57 / temporal-mvp / weightp / no-weightb / no-analyze-src-pics / deblock=0:0 / sao / no-sao-non-deblock / rd=4 / no-early-skip / rskip / no-fast-intra / no-tskip-fast / no-cu-lossless / no-b-intra / no-splitrd-skip / rdpenalty=0 / psy-rd=0.00 / psy-rdoq=1.00 / no-rd-refine / no-lossless / cbqpoffs=0 / crqpoffs=0 / rc=abr / bitrate=1200 / qcomp=0.60 / qpstep=4 / stats-write=0 / stats-read=2 / cplxblur=20.0 / qblur=0.5 / vbv-maxrate=3200 / vbv-bufsize=7400 / vbv-init=0.9 / ipratio=1.40 / pbratio=1.30 / aq-mode=2 / aq-strength=0.80 / cutree / zone-count=0 / no-strict-cbr / qg-size=32 / no-rc-grain / qpmax=69 / qpmin=0 / no-const-vbv / sar=0 / overscan=0 / videoformat=5 / range=0 / colorprim=2 / transfer=2 / colormatrix=1 / chromaloc=0 / display-window=0 / max-cll=0,0 / min-luma=0 / max-luma=1023 / log2-max-poc-lsb=8 / vui-timing-info / vui-hrd-info / slices=1 / no-opt-qp-pps / no-opt-ref-list-length-pps / multi-pass-opt-rps / scenecut-bias=0.05 / no-opt-cu-delta-qp / no-aq-motion / no-hdr / no-hdr-opt / no-dhdr10-opt / no-idr-recovery-sei / analysis-reuse-level=10 / scale-factor=0 / refine-intra=0 / refine-inter=0 / refine-mv=0 / limit-sao / ctu-info=0 / no-lowpass-dct / refine-mv-type=0 / copy-pic=1 / max-ausize-factor=1.0 / no-dynamic-refine / no-single-sei
Default                                  : Yes
Forced                                   : No
Color range                              : Limited
Matrix coefficients                      : BT.709

Audio
ID                                       : 2
Format                                   : AAC
Format/Info                              : Advanced Audio Codec
Format profile                           : HE-AACv2 / HE-AAC / LC
Codec ID                                 : A_AAC
Duration                                 : 48 min 25 s
Bit rate                                 : 192 kb/s
Channel(s)                               : 6 channels
Channel(s)_Original                      : 2 channels / 17 channels / 17 channels
Channel positions                        : Front: L R / , Side: 11, Back: 6 / , Side: 11, Back: 6
Sampling rate                            : 48.0 kHz / 48.0 kHz / 24.0 kHz
Frame rate                               : 23.438 FPS (1024 spf)
Compression mode                         : Lossy
Delay relative to video                  : 31 ms
Stream size                              : 65.8 MiB (14%)
Language                                 : English
Default                                  : No
Forced                                   : No

Subtitle
ID                                       : 3
Format                                   : UTF-8
Codec ID                                 : S_TEXT/UTF8
Codec ID/Info                            : UTF-8 Plain Text
Duration                                 : 48 min 22 s
Bit rate                                 : 95 b/s
Count of elements                        : 1029
Stream size                              : 33.9 KiB (0%)
Language                                 : English
Default                                  : No
Forced                                   : No

Source Information
Release: The.Orville.S02E01.Jaloja.1080p.AMZN.WEB-DL.DDP5.1.H.264-NTb.mkv (2.71 GBs)

Category:TV > HEVC/x265
Lang:English  English
Total Size:482 MB
Info Hash:3798f11dd0e0a97596c69608afc859ca97f71991
Added By:UTR
Date Added:01-01-2019 03:54:55

Files

File List: 
 File Size
The Orville S02E01 Jaloja (1080p x265 10bit FS96 Joy).mkv482 MB



Loading...
Comments

There are currently no comments. Be the first one to write something !

Disclaimer: None of the files shown here are actually hosted or transmitted by this server. The links are provided solely by this site's users. The site moderation is also a service provided by the site's users. The administrator of this site (ettv.tv) cannot be held responsible for what its users post, or any other actions of its users. You may not use this site to distribute or download any material when you do not have the legal rights to do so. It is your own responsibility to adhere to these terms.

Sitemap