survivor 2160p fortitude The walking dead vikings s05e14 titans arrow español timeless s02e12 NCIS Supernatural aquaman 1080p 2018 SUPERGIRL 2018 ita halloween 2018 bird box wwe Dtone venom it 1 the flash tushyraw 1080p.mp4-ktr johnny english strikes again 2018 xxx outlander timeless big bang theory español arrow Game of Thrones 0 ita ettv Macchine mortali Doctor Who johnny english Fortitude S03E03 HINDI tushy 18.12 1080p.mp4-ktr ITA 2018 Venom ita vikings s05 TRaVeLeRs marvels runaways ddr UHD The Big Bang Theory Home alone vikings windows 10 1080P Bad Times at the El Royale hindi 2018 Upgrade 1080 hellgate Bohemian Rhapsody Big Bang theory fgt First man etrg ıt 2017 evo south park etmovies chicago fire Christmas runaways dtone photoshop Titans S01E11 ethd 
Warning! Do not Download Without a VPN!
Your IP Address is .   Location is
Download and surf securely, stream unlimited and protect your personal data!
We strongly recommend using SpyOFF VPN!
Become Anonymous with SpyOFF
ETTV Recommended TV Shows
Timeless.S02E11.HDTV.x264-BATV[ettv] torrent
Murphy.Brown.S11E13.HDTV.x264-BATV[ettv] torrent
Marvels.Runaways.S02.WEBRip.x264-PBS[ettv] torrent
Titans.2018.S01E11.WEBRip.x264-eSc[ettv] torrent

ETTV Recommended SD
Halloween.2018.HDRip.XViD-ETRG torrent
Nemesis 5.2018.HDRip.XviD.AC3-EVO torrent
Shadow.Fighter.2018.HDRip.XviD.AC3-EVO torrent
The.Dark.Kingdom.2019.HDRip.AC3.X264-CMRG[EtMovies] torrent

ETTV Recommended HD
Halloween.2018.V2.1080p.WEB-DL.H264.AC3-EVO[EtHD] torrent
The.Miseducation.of.Cameron.Post.2018.Bluray.1080p.HEVC.DD.5.1-DTOne torrent
Ladies.in.Black.2018.1080p.BluRay.HEVC.DTS-HD.MA.5.1-DTOne torrent
God.Bless.The.Broken.Road.2018.BluRay.1080p.HEVC.DTS-HD.MA5.1-DTOne torrent

ETTV Recommended UHD
Allegiant.2016.Multi.2160p.UHD.BluRay.x265.HDR.Atmos.7.1-DTOne torrent
Allied.2016.MULTi.2160p.UHD.BluRay.x265.HDR.DTS-HD.MA5.1-DTOne torrent
Independence Day Resurgence 2016.MULTi.2160p.UHD.Bluray.x265.HDR.Atmos.7.1-DTOne torrent
Mad Max Fury Road 2015.Multi.UHD.2160p.BluRay.x265.HDR.Atmos.7.1[En+Hi++]-DTOne torrent

ETTV Recommended Cam
Spider-Man Into the Spider-Verse 2018 NEW HDCAM.XViD.AC3-ETRG torrent
Instant.Family.2018.HDCAM.x264.AC3-ETRG torrent
Bumblebee 2018 NEW HDCAM x264 AC3-ETRG torrent
Aquaman.2018.HDTC.x264.AC3-ETRG torrent

ETTV Recommended Foreign
Devadas (2018) [TELUGU - 720p - WEB HDRip - x264 - DD 2.1 - 2GB] - MAZE torrent
ZERO.(2018).1-3.CAM.Rip.x264.AAC-DTOne.Exclusive torrent
Pokkiri Raja (2016) 720p UNCUT HDRip x264 Eng Subs [Dual Audio] [Hindi DD 2.0 - Tamil 2.0] Exclusive By -=!Dr.STAR!=- torrent
Lucy.2014.Multi.2160p.UHD.BluRay.x265.Atmos.7.1.[En+Hi]-DTOne torrent


Download Torrent "Mad Max Fury Road 2015.Multi.UHD.2160p.BluRay.x265.HDR.Atmos.7.1[En+Hi++]-D..."

IMDB Details
Description:

In a post-apocalyptic wasteland, a woman rebels against a tyrannical ruler in search for her homeland with the aid of a group of female prisoners, a psychotic worshiper, and a drifter named Max.

Genre:

Action, Adventure, Sci-Fi, Thriller

Download Torrent (Magnet)
Download Torrent (File)
Seeds: 9
Leechers: 0
Completed:
Last Checked: 21-12-2018 21:46:26


Loading...
Details
Title:Mad Max Fury Road 2015.Multi.UHD.2160p.BluRay.x265.HDR.Atmos.7.1[En+Hi++]-D...
Description:
I will seed up till 4 of You complete[color]
No More No Less
[/color]





SPECS

Source : UHD Bluray

Format                                   : Matroska
File size                                : 28.4 GiB
Duration                                 : 2 h 0 min
Overall bit rate mode                    : Variable
Overall bit rate                         : 33.8 Mb/s


Video
Format                                   : HEVC/x265
Commercial name                          : HDR
Format profile                           : Main [email protected]@High
Bit rate                                 : 25.6 Mb/s
Width                                    : 3 840 pixels
Height                                   : 1 600 pixels
Bit depth                                : 10 bits
Color primaries                          : BT.2020
Transfer characteristics                 : PQ
Matrix coefficients                      : BT.2020 non-constant
Mastering display color primaries        : Display P3
Mastering display luminance              : min: 0.0050 cd/m2, max: 4000 cd/m2
Maximum Content Light Level              : 9918 cd/m2
Maximum Frame-Average Light Level        : 3241 cd/m2

Audio #1
ID                                       : 2
Format                                   : MLP FBA 16-ch
Format/Info                              : Meridian Lossless Packing FBA with 16-channel presentation
Commercial name                          : Dolby TrueHD with Dolby Atmos
Codec ID                                 : A_TRUEHD
Duration                                 : 2 h 0 min
Bit rate mode                            : Variable
Bit rate                                 : 5 693 kb/s
Maximum bit rate                         : 8 412 kb/s
Channel(s)                               : 8 channels
Channel layout                           : L R C LFE Ls Rs Lb Rb
Sampling rate                            : 48.0 kHz
Frame rate                               : 1 200.000 FPS (40 SPF)
Compression mode                         : Lossless
Stream size                              : 4.79 GiB (17%)
Language                                 : English
Default                                  : Yes
Forced                                   : No
Number of dynamic objects                : 11
Bed channel count                        : 1 channel
Bed channel configuration                : LFE

Audio #2
ID                                       : 3
Format                                   : AC-3
Format/Info                              : Audio Coding 3
Commercial name                          : Dolby Digital
Codec ID                                 : A_AC3
Duration                                 : 2 h 0 min
Bit rate mode                            : Constant
Bit rate                                 : 384 kb/s
Channel(s)                               : 6 channels
Channel layout                           : L R C LFE Ls Rs
Sampling rate                            : 48.0 kHz
Frame rate                               : 31.250 FPS (1536 SPF)
Bit depth                                : 16 bits
Compression mode                         : Lossy
Delay relative to video                  : 23 ms
Stream size                              : 331 MiB (1%)
Language                                 : English
Service kind                             : Complete Main
Default                                  : No
Forced                                   : No

Audio #3
ID                                       : 4
Format                                   : AC-3
Format/Info                              : Audio Coding 3
Commercial name                          : Dolby Digital
Codec ID                                 : A_AC3
Duration                                 : 2 h 0 min
Bit rate mode                            : Constant
Bit rate                                 : 448 kb/s
Channel(s)                               : 6 channels
Channel layout                           : L R C LFE Ls Rs
Sampling rate                            : 48.0 kHz
Frame rate                               : 31.250 FPS (1536 SPF)
Bit depth                                : 16 bits
Compression mode                         : Lossy
Delay relative to video                  : 12 ms
Stream size                              : 386 MiB (1%)
Language                                 : Hindi
Service kind                             : Complete Main
Default                                  : No
Forced                                   : No

Audio #4
ID                                       : 5
Format                                   : AC-3
Format/Info                              : Audio Coding 3
Commercial name                          : Dolby Digital
Codec ID                                 : A_AC3
Duration                                 : 2 h 0 min
Bit rate mode                            : Constant
Bit rate                                 : 640 kb/s
Channel(s)                               : 6 channels
Channel layout                           : L R C LFE Ls Rs
Sampling rate                            : 48.0 kHz
Frame rate                               : 31.250 FPS (1536 SPF)
Bit depth                                : 16 bits
Compression mode                         : Lossy
Stream size                              : 551 MiB (2%)
Language                                 : French
Service kind                             : Complete Main
Default                                  : No
Forced                                   : No

Audio #5
ID                                       : 6
Format                                   : AC-3
Format/Info                              : Audio Coding 3
Commercial name                          : Dolby Digital
Codec ID                                 : A_AC3
Duration                                 : 2 h 0 min
Bit rate mode                            : Constant
Bit rate                                 : 448 kb/s
Channel(s)                               : 6 channels
Channel layout                           : L R C LFE Ls Rs
Sampling rate                            : 48.0 kHz
Frame rate                               : 31.250 FPS (1536 SPF)
Bit depth                                : 16 bits
Compression mode                         : Lossy
Delay relative to video                  : 32 ms
Stream size                              : 386 MiB (1%)
Language                                 : Italian
Service kind                             : Complete Main
Default                                  : No
Forced                                   : No

Audio #6
ID                                       : 7
Format                                   : AC-3
Format/Info                              : Audio Coding 3
Commercial name                          : Dolby Digital
Codec ID                                 : A_AC3
Duration                                 : 2 h 0 min
Bit rate mode                            : Constant
Bit rate                                 : 448 kb/s
Channel(s)                               : 6 channels
Channel layout                           : L R C LFE Ls Rs
Sampling rate                            : 48.0 kHz
Frame rate                               : 31.250 FPS (1536 SPF)
Bit depth                                : 16 bits
Compression mode                         : Lossy
Delay relative to video                  : 32 ms
Stream size                              : 386 MiB (1%)
Language                                 : Spanish

Subs:
En Fr Sp It Dut Chi Dan Fin Nor Swe  


[size=4]Request for reseed of my Old Releases: HERE[/size]

[email protected]
Category:Movies > UltraHD/4K
Lang:English  English
Total Size:28.40 GB
Info Hash:a5d68a5b5364723abc2aa86cb76cc72303ab6050
Added By:DTOne
Date Added:21-12-2018 21:46:22

  

Files

File List: 
 File Size
A DT0ne Release !!!.txt287.00 B
Mad Max Fury Road 2015.Multi.UHD.2160p.BluRay.x265.HDR.Atmos.7.1[En+Hi++]-DTOne.mkv28.40 GB
Torrent downloaded from Desitorrents.tv.txt28.00 B



Loading...
Comments

There are currently no comments. Be the first one to write something !

Disclaimer: None of the files shown here are actually hosted or transmitted by this server. The links are provided solely by this site's users. The site moderation is also a service provided by the site's users. The administrator of this site (ettv.tv) cannot be held responsible for what its users post, or any other actions of its users. You may not use this site to distribute or download any material when you do not have the legal rights to do so. It is your own responsibility to adhere to these terms.

Sitemap