2160p arrow 2018 movies ita game of thrones house of cards titans s01e04 Supernatural Venom Incredibles 2 Outlander big bang theory español ddr ufc 230 UFC 2018 ITA ncis The Predator alpha Evo 0 the big bang theory s12e07 Empire ettv fabbriciani arrow español survivor Star Trek Discovery The Walking dead damerini Greys Anatomy ethd Doctor Who Supergirl haberkamp ita 2018 star trek discovery español dtone van helsing in mo yang WWE champian fulton It the flash titans seal team vikings blindspot coral egan shameless etrg etmovies venom ita evo office 2019 fgt Lucifer oceans eleven Big Bang Theory NFL Dtone great british bake off s09e10 ray donovan the nun The Equalizer 2 modern family Gotham A Discovery of Witches Outlander S04E01 hindi doctor who s11e05 the big bang theory 
Warning! Do not Download Without a VPN!
Your IP Address is .   Location is
Download and surf securely, stream unlimited and protect your personal data!
We strongly recommend using SpyOFF VPN!
Become Anonymous with SpyOFF
ETTV Recommended TV Shows
UFC 230 Cormier vs Lewis HDTV x264-Star [TJET] torrent
Ray.Donovan.S06E02.WEBRip.x264-PBS[ettv] torrent
Saturday.Night.Live.S44E04.Jonah.Hill.and.Maggie.Rogers.HDTV.x264-CRiMSON[ettv] torrent
Outlander.S04E01.WEB.H264-MEMENTO[ettv] torrent

ETTV Recommended Xvid
The.Meg.2018.BDRip.XviD.AC3-EVO[EtMovies] torrent
The.First.Date.2018.HDRip.XviD.AC3-EVO[EtMovies] torrent
BlacKkKlansman.2018.BRRip.XviD.AC3-EVO[EtMovies] torrent
The Hate U Give.2018.HC.HDRip.XviD.AC3-EVO[EtMovies] torrent

ETTV Recommended HD
The Marine 6.Close Quarters.720p.WEB-DL.H264.AC3-EVO[EtHD] torrent
The Hate U Give.2018.1080p.HC.HDRip.X264.AC3-EVO[EtHD] torrent
Generational.Sins.2017.1080p.AMZN.WEB-DL.DDP5.1.H.264-NTb[EtHD] torrent
Robin.Hood.The.Rebellion.2018.1080p.WEB-DL.DD5.1.H264-CMRG[EtHD] torrent

ETTV Recommended UHD
The.Matrix.Revolutions.2003.Multi.mUHD.2160p.x265.HDR.DD.5.1-DTOne torrent
The.Fog.1980.Multi.UHD.2160p.Bluray.x265.HDR.TS.5.1-DTOne torrent
They.Live.1988.Multi.UHD.2160p.Bluray.x265.HDR.DTS.5.1-DTOne torrent
Blade Runner 2049 (2017) 4K UHD BluRay x264 DTS Alien4 torrent

ETTV Recommended Cam
Hunter Killer 2018 HDCAM.XViD.AC3-ETRG torrent
Replicas 2018.HDCAM.x264.AC3-ETRG torrent
Bohemian Rhapsody 2018 HDCAM.XViD.AC3-ETRG torrent
The Nutcracker and the Four Realms 2018 HDCAM x264 AC3-ETRG torrent

ETTV Recommended Foreign
Raatchasan (2018) 720p x265 AAC 5.1 - DTOne torrent
Dans la brume 2018 1080p BluRay DD5.1 x264-SPEED[EtHD] torrent
Sleepy Hollow (1999) 720p BluRay x264 Dual Audio [Hindi DD5.1 - English DD5.1] - ESUB ~ Ranvijay torrent
5 Weddings 2018 PreDvd Hindi 720p x264 AAC - mkvCinemas torrent

Social


Download Torrent "Supernatural (2005) Season 11 S11 (1080p BluRay x265 HEVC 10bit AAC 5.1 Joy..."

IMDB Details
Description:

N/A

Genre:

N/A

Download Torrent (Magnet)
Download Torrent (File)
Seeds: 57
Leechers: 49
Completed: 168 
Last Checked: 02-11-2018 05:48:59


Loading...
Details
Title:Supernatural (2005) Season 11 S11 (1080p BluRay x265 HEVC 10bit AAC 5.1 Joy...
Description:





Media Information
General
Format                                   : Matroska
Format version                           : Version 4 / Version 2
File size                                : 463 MiB
Duration                                 : 42 min 27 s
Overall bit rate                         : 1 524 kb/s
Movie name                               : Supernatural Season 11 Disc 1
Encoded date                             : UTC 2016-09-27 07:57:42
Writing application                      : mkvmerge v9.0.1 ('Obstacles') 64bit
Writing library                          : libebml v1.3.3 + libmatroska v1.4.4

Video
ID                                       : 1
Format                                   : HEVC
Format/Info                              : High Efficiency Video Coding
Format profile                           : Main [email protected]@Main
Codec ID                                 : V_MPEGH/ISO/HEVC
Duration                                 : 42 min 27 s
Bit rate                                 : 1 224 kb/s
Width                                    : 1 920 pixels
Height                                   : 1 080 pixels
Display aspect ratio                     : 16:9
Frame rate mode                          : Constant
Frame rate                               : 23.976 (24000/1001) FPS
Color space                              : YUV
Chroma subsampling                       : 4:2:0
Bit depth                                : 10 bits
Bits/(Pixel*Frame)                       : 0.025
Stream size                              : 372 MiB (80%)
Writing library                          : x265 1.9+140-34a3d35c5f97:[Windows][GCC 5.3.0][64 bit] 10bit
Encoding settings                        : wpp / ctu=64 / min-cu-size=8 / max-tu-size=32 / tu-intra-depth=1 / tu-inter-depth=1 / me=1 / subme=2 / merange=57 / no-rect / no-amp / max-merge=2 / temporal-mvp / no-early-skip / rdpenalty=0 / no-tskip / no-tskip-fast / strong-intra-smoothing / no-lossless / no-cu-lossless / no-constrained-intra / no-fast-intra / open-gop / no-temporal-layers / interlace=0 / keyint=250 / min-keyint=23 / scenecut=40 / rc-lookahead=20 / lookahead-slices=6 / bframes=4 / bframe-bias=0 / b-adapt=2 / ref=3 / limit-refs=3 / no-limit-modes / weightp / no-weightb / aq-mode=0 / qg-size=64 / aq-strength=1.00 / cbqpoffs=0 / crqpoffs=0 / rd=3 / psy-rd=2.00 / rdoq-level=0 / psy-rdoq=0.00 / no-rd-refine / signhide / deblock=0:0 / sao / no-sao-non-deblock / b-pyramid / no-cutree / no-intra-refresh / rc=2 / pass / bitrate=1223 / qcomp=0.60 / qpmin=0 / qpmax=51 / qpstep=1 / cplxblur=20.0 / qblur=0.5 / ipratio=1.10 / pbratio=1.00
Default                                  : Yes
Forced                                   : No

Audio #1
ID                                       : 2
Format                                   : AAC
Format/Info                              : Advanced Audio Codec
Format profile                           : HE-AAC / LC
Codec ID                                 : A_AAC
Duration                                 : 42 min 27 s
Bit rate                                 : 192 kb/s
Channel(s)                               : 6 channels
Channel positions                        : Front: L C R, Side: L R, LFE
Sampling rate                            : 48.0 kHz / 24.0 kHz
Frame rate                               : 23.438 FPS (1024 spf)
Compression mode                         : Lossy
Delay relative to video                  : 31 ms
Stream size                              : 57.4 MiB (12%)
Language                                 : English
Default                                  : No
Forced                                   : No

Audio #2
ID                                       : 3
Format                                   : AAC
Format/Info                              : Advanced Audio Codec
Format profile                           : HE-AAC / LC
Codec ID                                 : A_AAC
Duration                                 : 42 min 27 s
Bit rate                                 : 81.9 kb/s
Channel(s)                               : 2 channels
Channel positions                        : Front: L R
Sampling rate                            : 48.0 kHz / 24.0 kHz
Frame rate                               : 23.438 FPS (1024 spf)
Compression mode                         : Lossy
Delay relative to video                  : 31 ms
Stream size                              : 24.9 MiB (5%)
Language                                 : Spanish
Default                                  : No
Forced                                   : No

Subtitle #1
ID                                       : 4
Format                                   : VobSub
Muxing mode                              : zlib
Codec ID                                 : S_VOBSUB
Codec ID/Info                            : Picture based subtitle format used on DVDs
Duration                                 : 42 min 10 s
Bit rate                                 : 61 b/s
Count of elements                        : 7
Stream size                              : 19.1 KiB (0%)
Language                                 : Spanish
Default                                  : No
Forced                                   : No

Subtitle #2
ID                                       : 5
Format                                   : VobSub
Muxing mode                              : zlib
Codec ID                                 : S_VOBSUB
Codec ID/Info                            : Picture based subtitle format used on DVDs
Duration                                 : 42 min 10 s
Bit rate                                 : 85 b/s
Count of elements                        : 9
Stream size                              : 26.4 KiB (0%)
Language                                 : Portuguese
Default                                  : No
Forced                                   : No

Subtitle #3
ID                                       : 6
Format                                   : VobSub
Muxing mode                              : zlib
Codec ID                                 : S_VOBSUB
Codec ID/Info                            : Picture based subtitle format used on DVDs
Duration                                 : 42 min 22 s
Bit rate                                 : 5 985 b/s
Count of elements                        : 610
Stream size                              : 1.81 MiB (0%)
Language                                 : English
Default                                  : No
Forced                                   : No

Subtitle #4
ID                                       : 7
Format                                   : VobSub
Muxing mode                              : zlib
Codec ID                                 : S_VOBSUB
Codec ID/Info                            : Picture based subtitle format used on DVDs
Duration                                 : 42 min 22 s
Bit rate                                 : 5 030 b/s
Count of elements                        : 472
Stream size                              : 1.52 MiB (0%)
Language                                 : French
Default                                  : No
Forced                                   : No

Subtitle #5
ID                                       : 8
Format                                   : VobSub
Muxing mode                              : zlib
Codec ID                                 : S_VOBSUB
Codec ID/Info                            : Picture based subtitle format used on DVDs
Duration                                 : 42 min 22 s
Bit rate                                 : 5 120 b/s
Count of elements                        : 542
Stream size                              : 1.55 MiB (0%)
Language                                 : Spanish
Default                                  : No
Forced                                   : No

Subtitle #6
ID                                       : 9
Format                                   : VobSub
Muxing mode                              : zlib
Codec ID                                 : S_VOBSUB
Codec ID/Info                            : Picture based subtitle format used on DVDs
Duration                                 : 42 min 23 s
Bit rate                                 : 5 194 b/s
Count of elements                        : 482
Stream size                              : 1.57 MiB (0%)
Language                                 : Spanish
Default                                  : No
Forced                                   : No

Subtitle #7
ID                                       : 10
Format                                   : VobSub
Muxing mode                              : zlib
Codec ID                                 : S_VOBSUB
Codec ID/Info                            : Picture based subtitle format used on DVDs
Duration                                 : 42 min 23 s
Bit rate                                 : 4 982 b/s
Count of elements                        : 483
Stream size                              : 1.51 MiB (0%)
Language                                 : Portuguese
Default                                  : No
Forced                                   : No

Menu
00:00:00.000                             : en:Chapter 01
00:01:19.954                             : en:Chapter 02
00:04:57.672                             : en:Chapter 03
00:17:12.448                             : en:Chapter 04
00:25:33.406                             : en:Chapter 05
00:32:08.426                             : en:Chapter 06
00:36:06.414                             : en:Chapter 07
00:41:58.557                             : en:Chapter 08

Source Information
Release: Joy's Back Catalog


UTR wrote:

Note From UTR
We have no issue with individuals posting or re-uploading our torrents on a platform we aren't on. However, if this is something you'd like to do, please do so in a 'as-is' format. We ask that you do not create a new torrent, include all descriptions you see above including the UTR logo, tags, notes and screenshots. If you'd like to become a permanent poster on a website we don't post to, feel free to get in contact with a UniTeam member.

If possible please donate: BTC 1QA5fum5AyXvWzdVCkQzUNvw3Ef15fHRaR


Category:TV > HEVC/x265
Lang:English  English
Total Size:10.99 GB
Info Hash:e4f0cdd425ee135849a557074d24e7e6e3829bc5
Added By:UTR
Date Added:02-11-2018 05:48:54

Files

File List: 
 File Size
Encoded by JoyBell.txt452.00 B
Extras/Digital Magic - Enhancing the Sets with VFX.mkv56 MB
Extras/Jensen Ackles On Directing the Bad Seed.mkv29 MB
Extras/On Set With SPN- The Real Fan Contest.mkv192 MB
Extras/Supernatural 2015 Comic-Con Panel.mkv204 MB
Extras/Supernatural Season 11 Gag Reel.mkv64 MB
Extras/The Winchester Mythology - Shedding Light on the Darkness.mkv105 MB
folder.jpg10.52 kB
How to play HEVC (THIS FILE).txt3.03 kB
media info.txt7.89 kB
Ninite K-Lite Codecs Unattended Silent Installer and Updater.website561.00 B
Supernatural S11E01 Out of the Darkness, Into the Fire (1080p x265 Joy).mkv463 MB
Supernatural S11E02 Form and Void (1080p x265 Joy).mkv462 MB
Supernatural S11E03 The Bad Seed (1080p x265 Joy).mkv457 MB
Supernatural S11E04 Baby (1080p x265 Joy).mkv465 MB
Supernatural S11E05 Thin Lizzie (1080p x265 Joy).mkv465 MB
Supernatural S11E06 Our Little World (1080p x265 Joy).mkv463 MB
Supernatural S11E07 Plush (1080p x265 Joy).mkv453 MB
Supernatural S11E08 Just My Imagination (1080p x265 Joy).mkv463 MB
Supernatural S11E09 O Brother, Where Art Thou (1080p x265 Joy).mkv465 MB
Supernatural S11E10 The Devil in the Details (1080p x265 Joy).mkv465 MB
Supernatural S11E11 Into the Mystic (1080p x265 Joy).mkv465 MB
Supernatural S11E12 Don't You Forget About Me (1080p x265 Joy).mkv463 MB
Supernatural S11E13 Love Hurts (1080p x265 Joy).mkv458 MB
Supernatural S11E14 The Vessel (1080p x265 Joy).mkv459 MB
Supernatural S11E15 Beyond the Mat (1080p x265 Joy).mkv464 MB
Supernatural S11E16 Safe House (1080p x265 Joy).mkv464 MB
Supernatural S11E17 Red Meat (1080p x265 Joy).mkv450 MB
Supernatural S11E18 Hell's Angel (1080p x265 Joy).mkv463 MB
Supernatural S11E19 The Chitters (1080p x265 Joy).mkv456 MB
Supernatural S11E20 Don't Call Me Shurley (1080p x265 Joy).mkv466 MB
Supernatural S11E21 All in the Family 1080p (1080p x265 Joy).mkv453 MB
Supernatural S11E22 We Happy Few (1080p x265 Joy).mkv456 MB
Supernatural S11E23 Alpha and Omega (1080p x265 Joy).mkv463 MB



Loading...
Comments

There are currently no comments. Be the first one to write something !

Disclaimer: None of the files shown here are actually hosted or transmitted by this server. The links are provided solely by this site's users. The site moderation is also a service provided by the site's users. The administrator of this site (ettv.tv) cannot be held responsible for what its users post, or any other actions of its users. You may not use this site to distribute or download any material when you do not have the legal rights to do so. It is your own responsibility to adhere to these terms.

Sitemap