loewenmark High Castle s03 The flash WWE evo the walking dead South park IT star trek discovery español Lucifer great british bake off s09e10 The Equalizer 2 incredibles 2 big bang theory greys anatomy 2160p vikings homecoming the meg titans s01e04 Mile 22 mr robot en español ddr american horror story dtone arrow etrg Venom Сборник NFL survivor 2018 movies arrow español walking dead Modern family SUPERGIRL the predator 0 Blindspot S04E04 Blindspot House of cards legends of tomorrow a discovery of witches s01e08 the big bang theory s12e07 the good place A Discovery of Witches The Big Bang Theory game of thrones Star Trek Discovery titans fgt ethd van helsing z nation s05e05 The Nun Ncis shameless alpha 2018 ita DTone winterberg l?wenmark supernatural z nation etmovies big bang theory español ita hindi ettv 
Warning! Do not Download Without a VPN!
Your IP Address is .   Location is
Download and surf securely, stream unlimited and protect your personal data!
We strongly recommend using SpyOFF VPN!
Become Anonymous with SpyOFF
ETTV Recommended TV Shows
Titans.S01E04.WEBRip.x264-eSc[ettv] torrent
A.Discovery.Of.Witches.S01E08.HDTV.x264-GARBAGE[ettv] torrent
Ghost.Adventures.S17E01.Idaho.State.Reform.School.iNTERNAL.720p.HDTV.x264-DHD[ettv] torrent
UFC 230 Prelims HDTV x264-Star [TJET] torrent

ETTV Recommended Xvid
The Marine 6.Close Quarters.2018.DVDRip.XviD.AC3-EVO[EtMovies] torrent
The.Meg.2018.BDRip.XviD.AC3-EVO[EtMovies] torrent
The.First.Date.2018.HDRip.XviD.AC3-EVO[EtMovies] torrent
BlacKkKlansman.2018.BRRip.XviD.AC3-EVO[EtMovies] torrent

ETTV Recommended HD
Our.House.2018.BluRay.1080p.AAC.x264-MPAD[EtHD] torrent
The.Holiday.Calendar.2018.Multi.1080p.NF.WebDL.AVC.DD.5.1-DTOne torrent
The.Meg.2018.1080p.Bluray.X264-EVO[EtHD] torrent
BlacKkKlansman.2018.1080p.BluRay.x264-GECKOS[EtHD] torrent

ETTV Recommended UHD
Justice.League.Dark.2017.Multi.mUHD.2160p.BluRay.x265.HDR.DTS.5.1-DTOne torrent
The.Matrix.Revolutions.2003.Multi.mUHD.2160p.x265.HDR.DD.5.1-DTOne torrent
The.Fog.1980.Multi.UHD.2160p.Bluray.x265.HDR.TS.5.1-DTOne torrent
They.Live.1988.Multi.UHD.2160p.Bluray.x265.HDR.DTS.5.1-DTOne torrent

ETTV Recommended Cam
Hunter Killer 2018 HDCAM.XViD.AC3-ETRG torrent
Replicas 2018.HDCAM.x264.AC3-ETRG torrent
Bohemian Rhapsody 2018 HDCAM.XViD.AC3-ETRG torrent
The Nutcracker and the Four Realms 2018 HDCAM.XViD.AC3-ETRG torrent

ETTV Recommended Foreign
Raambo 2 (2018) 720p UNCUT HDRip x264 [Dual Audio] [Hindi DD 2.0 - Kannada 2.0] Exclusive By -=!Dr.STAR!=- torrent
Upendra Matte Baa (2017) 720p UNCUT HDRip x264 [Dual Audio] [Hindi DD 2.0 - Kannada 2.0] Exclusive By -=!Dr.STAR!=- torrent
Raatchasan (2018) 720p x265 AAC 5.1 - DTOne torrent
Dans la brume 2018 1080p BluRay DD5.1 x264-SPEED[EtHD] torrent

Social


Download Torrent "Green Lantern (2011) TC 1080p BluRay x264 Dual Audio [Hindi DD2.0 - English..."

IMDB Details
Description:

N/A

Genre:

N/A

Download Torrent (Magnet)
Download Torrent (File)
Seeds: 76
Leechers: 102
Completed: 402 
Last Checked: 31-10-2018 08:22:02


Loading...
Details
Title:Green Lantern (2011) TC 1080p BluRay x264 Dual Audio [Hindi DD2.0 - English...
Description:






Join My Facebook Group

Green Lantern (2011) TC 1080p BluRay x264 Dual Audio [Hindi DD2.0 - English DD5.1] - ESUBS ~ Ranvijay


Thanks To The Punisher For Hindi Audio

Buy RDP Online




Format                                  : Matroska
Format version                          : Version 4 / Version 2
File size                                : 4.54 GiB
Duration                                : 1 h 54 min
Overall bit rate                        : 5 701 kb/s
Movie name                              : Green Lantern (2011) TC 1080p BluRay x264 Dual Audio [Hindi DD2.0 - English DD5.1] - ESUBS ~ Ranvijay

Video
ID                                      : 1
Format                                  : AVC
Format/Info                              : Advanced Video Codec
Duration                                : 1 h 54 min
Bit rate                                : 5 000 kb/s
Width                                    : 1 920 pixels
Height                                  : 800 pixels
Display aspect ratio                    : 2.40:1
Frame rate mode                          : Constant
Frame rate                              : 23.976 (24000/1001) FPS
Color space                              : YUV
Chroma subsampling                      : 4:2:0
Bit depth                                : 8 bits
Scan type                                : Progressive
Bits/(Pixel*Frame)                      : 0.136
Stream size                              : 3.98 GiB (88%)
Title                                    : ~Ranvijay~

Audio #1
ID                                      : 2
Format                                  : AC-3
Format/Info                              : Audio Coding 3
Codec ID                                : A_AC3
Duration                                : 1 h 53 min
Bit rate mode                            : Constant
Bit rate                                : 224 kb/s
Channel(s)                              : 2 channels
Channel positions                        : Front: L R
Sampling rate                            : 48.0 kHz
Frame rate                              : 31.250 FPS (1536 SPF)
Bit depth                                : 16 bits
Compression mode                        : Lossy
Delay relative to video                  : 1 s 700 ms
Stream size                              : 182 MiB (4%)
Title                                    : ~Ranvijay~
Language                                : Hindi
Service kind                            : Complete Main
Default                                  : Yes
Forced                                  : Yes

Audio #2
ID                                      : 3
Format                                  : AC-3
Format/Info                              : Audio Coding 3
Codec ID                                : A_AC3
Duration                                : 1 h 54 min
Bit rate mode                            : Constant
Bit rate                                : 448 kb/s
Channel(s)                              : 6 channels
Channel positions                        : Front: L C R, Side: L R, LFE
Sampling rate                            : 48.0 kHz
Frame rate                              : 31.250 FPS (1536 SPF)
Bit depth                                : 16 bits
Compression mode                        : Lossy
Stream size                              : 365 MiB (8%)
Title                                    : ~Ranvijay~
Language                                : English
Service kind                            : Complete Main
Default                                  : No
Forced                                  : No

Text #1
ID                                      : 4
Format                                  : PGS
Muxing mode                              : zlib
Codec ID                                : S_HDMV/PGS
Codec ID/Info                            : Picture based subtitle format used on BDs/HD-DVDs
Duration                                : 1 h 53 min
Bit rate                                : 49.0 kb/s
Count of elements                        : 2492
Stream size                              : 39.7 MiB (1%)
Title                                    : ~Ranvijay~
Language                                : English
Default                                  : Yes
Forced                                  : Yes

Text #2
ID                                      : 5
Format                                  : UTF-8
Codec ID                                : S_TEXT/UTF8
Codec ID/Info                            : UTF-8 Plain Text
Duration                                : 1 h 53 min
Bit rate                                : 47 b/s
Count of elements                        : 1246
Stream size                              : 39.3 KiB (0%)
Title                                    : ~Ranvijay~
Language                                : English
Default                                  : No
Forced                                  : No

Menu
00:00:00.000                            : :00:00:00.000
00:06:37.814                            : :00:06:37.814
00:16:36.078                            : :00:16:36.078
00:24:36.141                            : :00:24:36.141
00:33:13.909                            : :00:33:13.909
00:40:33.806                            : :00:40:33.806
00:48:23.818                            : :00:48:23.818
00:57:05.464                            : :00:57:05.464
01:04:24.527                            : :01:04:24.527
01:15:01.831                            : :01:15:01.831
01:23:11.486                            : :01:23:11.486
01:34:29.455                            : :01:34:29.455
01:42:22.762                            : :01:42:22.762
01:47:15.346                            : :01:47:15.346












Don't walk as you are king, walk as you don't care who the king is....!!





[url=http://www.facebook.com/groups/192253191390113/][/url]
Category:Movies > Dubs/Dual Audio
Lang:Hindi  Hindi
Total Size:4.57 GB
Info Hash:d9f825862a1a51fa317a816626daa15c419b4ddd
Added By:TheFighter
Date Added:31-10-2018 08:21:53

  

Files

File List: 
 File Size
Green Lantern (2011) TC 1080p BluRay x264 Dual Audio [Hindi DD2.0 - English DD5.1] - ESUBS ~ Ranvijay.mkv4.54 GB
Sample - Green Lantern (2011) TC 1080p.mkv25 MB
SpecialRDP - Premium & Affordable Web Hosting Solution.url48.00 B



Loading...
Comments

There are currently no comments. Be the first one to write something !

Disclaimer: None of the files shown here are actually hosted or transmitted by this server. The links are provided solely by this site's users. The site moderation is also a service provided by the site's users. The administrator of this site (ettv.tv) cannot be held responsible for what its users post, or any other actions of its users. You may not use this site to distribute or download any material when you do not have the legal rights to do so. It is your own responsibility to adhere to these terms.

Sitemap