2160p arrow 2018 movies ita game of thrones house of cards titans s01e04 Supernatural Venom Incredibles 2 Outlander big bang theory español ddr ufc 230 UFC 2018 ITA ncis The Predator alpha Evo 0 the big bang theory s12e07 Empire ettv fabbriciani arrow español survivor Star Trek Discovery The Walking dead damerini Greys Anatomy ethd Doctor Who Supergirl haberkamp ita 2018 star trek discovery español dtone van helsing in mo yang WWE champian fulton It the flash titans seal team vikings blindspot coral egan shameless etrg etmovies venom ita evo office 2019 fgt Lucifer oceans eleven Big Bang Theory NFL Dtone great british bake off s09e10 ray donovan the nun The Equalizer 2 modern family Gotham A Discovery of Witches Outlander S04E01 hindi doctor who s11e05 the big bang theory 
Warning! Do not Download Without a VPN!
Your IP Address is .   Location is
Download and surf securely, stream unlimited and protect your personal data!
We strongly recommend using SpyOFF VPN!
Become Anonymous with SpyOFF
ETTV Recommended TV Shows
UFC 230 Cormier vs Lewis HDTV x264-Star [TJET] torrent
Ray.Donovan.S06E02.WEBRip.x264-PBS[ettv] torrent
Saturday.Night.Live.S44E04.Jonah.Hill.and.Maggie.Rogers.HDTV.x264-CRiMSON[ettv] torrent
Outlander.S04E01.WEB.H264-MEMENTO[ettv] torrent

ETTV Recommended Xvid
The.Meg.2018.BDRip.XviD.AC3-EVO[EtMovies] torrent
The.First.Date.2018.HDRip.XviD.AC3-EVO[EtMovies] torrent
BlacKkKlansman.2018.BRRip.XviD.AC3-EVO[EtMovies] torrent
The Hate U Give.2018.HC.HDRip.XviD.AC3-EVO[EtMovies] torrent

ETTV Recommended HD
The Marine 6.Close Quarters.720p.WEB-DL.H264.AC3-EVO[EtHD] torrent
The Hate U Give.2018.1080p.HC.HDRip.X264.AC3-EVO[EtHD] torrent
Generational.Sins.2017.1080p.AMZN.WEB-DL.DDP5.1.H.264-NTb[EtHD] torrent
Robin.Hood.The.Rebellion.2018.1080p.WEB-DL.DD5.1.H264-CMRG[EtHD] torrent

ETTV Recommended UHD
The.Matrix.Revolutions.2003.Multi.mUHD.2160p.x265.HDR.DD.5.1-DTOne torrent
The.Fog.1980.Multi.UHD.2160p.Bluray.x265.HDR.TS.5.1-DTOne torrent
They.Live.1988.Multi.UHD.2160p.Bluray.x265.HDR.DTS.5.1-DTOne torrent
Blade Runner 2049 (2017) 4K UHD BluRay x264 DTS Alien4 torrent

ETTV Recommended Cam
Hunter Killer 2018 HDCAM.XViD.AC3-ETRG torrent
Replicas 2018.HDCAM.x264.AC3-ETRG torrent
Bohemian Rhapsody 2018 HDCAM.XViD.AC3-ETRG torrent
The Nutcracker and the Four Realms 2018 HDCAM x264 AC3-ETRG torrent

ETTV Recommended Foreign
Raatchasan (2018) 720p x265 AAC 5.1 - DTOne torrent
Dans la brume 2018 1080p BluRay DD5.1 x264-SPEED[EtHD] torrent
Sleepy Hollow (1999) 720p BluRay x264 Dual Audio [Hindi DD5.1 - English DD5.1] - ESUB ~ Ranvijay torrent
5 Weddings 2018 PreDvd Hindi 720p x264 AAC - mkvCinemas torrent

Social


Download Torrent "Supernatural (2005) Season 11 S11 + Extras (1080p BluRay x265 HEVC 10bit AA..."

IMDB Details
Description:

N/A

Genre:

N/A

Download Torrent (Magnet)
Download Torrent (File)
Seeds: 106
Leechers: 769
Completed: 342 
Last Checked: 08-09-2018 10:15:11


Loading...
Details
Title:Supernatural (2005) Season 11 S11 + Extras (1080p BluRay x265 HEVC 10bit AA...
Description:


Encode Screenshots (Click for full quality)




Media Information
General
Format                                   : Matroska
Format version                           : Version 4 / Version 2
File size                                : 1.37 GiB
Duration                                 : 42 min 27 s
Overall bit rate                         : 4 607 kb/s
Encoded date                             : UTC 2018-06-30 20:21:33
Writing application                      : mkvmerge v20.0.0 ('I Am The Sun') 64-bit
Writing library                          : libebml v1.3.5 + libmatroska v1.4.8
Cover                                    : Yes
Attachments                              : cover.jpg
Writing frontend                         : StaxRip v1.7.0.6

Video
ID                                       : 1
Format                                   : HEVC
Format/Info                              : High Efficiency Video Coding
Format profile                           : Main [email protected]@Main
Codec ID                                 : V_MPEGH/ISO/HEVC
Duration                                 : 42 min 27 s
Bit rate                                 : 4 153 kb/s
Width                                    : 1 920 pixels
Height                                   : 1 080 pixels
Display aspect ratio                     : 16:9
Frame rate mode                          : Constant
Frame rate                               : 23.976 (24000/1001) FPS
Color space                              : YUV
Chroma subsampling                       : 4:2:0
Bit depth                                : 10 bits
Bits/(Pixel*Frame)                       : 0.084
Stream size                              : 1.23 GiB (90%)
Writing library                          : x265 2.8+3-450421921079:[Windows][MSVC 1900][64 bit] 10bit
Encoding settings                        : cpuid=1111039 / frame-threads=3 / numa-pools=8 / wpp / no-pmode / no-pme / no-psnr / no-ssim / log-level=2 / input-csp=1 / input-res=1920x1080 / interlace=0 / total-frames=61090 / level-idc=0 / high-tier=1 / uhd-bd=0 / ref=5 / no-allow-non-conformance / no-repeat-headers / annexb / no-aud / no-hrd / info / hash=0 / no-temporal-layers / open-gop / min-keyint=23 / keyint=250 / gop-lookahead=0 / bframes=8 / b-adapt=2 / b-pyramid / bframe-bias=0 / rc-lookahead=80 / lookahead-slices=4 / scenecut=40 / radl=0 / no-intra-refresh / ctu=64 / min-cu-size=8 / no-rect / no-amp / max-tu-size=32 / tu-inter-depth=1 / tu-intra-depth=1 / limit-tu=0 / rdoq-level=2 / dynamic-rd=0.00 / no-ssim-rd / signhide / no-tskip / nr-intra=0 / nr-inter=0 / no-constrained-intra / no-strong-intra-smoothing / max-merge=3 / limit-refs=3 / limit-modes / me=3 / subme=5 / merange=57 / temporal-mvp / weightp / weightb / no-analyze-src-pics / deblock=-3:-3 / no-sao / no-sao-non-deblock / rd=4 / no-early-skip / rskip / no-fast-intra / no-tskip-fast / no-cu-lossless / b-intra / no-splitrd-skip / rdpenalty=0 / psy-rd=1.50 / psy-rdoq=1.50 / no-rd-refine / no-lossless / cbqpoffs=0 / crqpoffs=0 / rc=crf / crf=19.5 / qcomp=0.60 / qpstep=4 / stats-write=0 / stats-read=0 / ipratio=1.40 / pbratio=1.30 / aq-mode=3 / aq-strength=1.00 / cutree / zone-count=0 / no-strict-cbr / qg-size=32 / no-rc-grain / qpmax=69 / qpmin=0 / no-const-vbv / sar=0 / overscan=0 / videoformat=5 / range=0 / colorprim=2 / transfer=2 / colormatrix=2 / chromaloc=0 / display-window=0 / max-cll=0,0 / min-luma=0 / max-luma=1023 / log2-max-poc-lsb=8 / vui-timing-info / vui-hrd-info / slices=1 / no-opt-qp-pps / no-opt-ref-list-length-pps / no-multi-pass-opt-rps / scenecut-bias=0.05 / no-opt-cu-delta-qp / no-aq-motion / no-hdr / no-hdr-opt / no-dhdr10-opt / no-idr-recovery-sei / analysis-reuse-level=5 / scale-factor=0 / refine-intra=0 / refine-inter=0 / refine-mv=0 / no-limit-sao / ctu-info=0 / no-lowpass-dct / refine-mv-type=0 / copy-pic=1 / max-ausize-factor=1.0 / no-dynamic-refine / no-single-sei
Default                                  : Yes
Forced                                   : No

Audio
ID                                       : 2
Format                                   : AAC
Format/Info                              : Advanced Audio Codec
Format profile                           : LC
Codec ID                                 : A_AAC
Duration                                 : 42 min 27 s
Bit rate                                 : 440 kb/s
Channel(s)                               : 6 channels
Channel positions                        : Front: L C R, Side: L R, LFE
Sampling rate                            : 48.0 kHz
Frame rate                               : 46.875 FPS (1024 spf)
Compression mode                         : Lossy
Delay relative to video                  : 20 ms
Stream size                              : 134 MiB (10%)
Language                                 : English
Default                                  : Yes
Forced                                   : No

Subtitle
ID                                       : 3
Format                                   : PGS
Muxing mode                              : zlib
Codec ID                                 : S_HDMV/PGS
Codec ID/Info                            : Picture based subtitle format used on BDs/HD-DVDs
Duration                                 : 42 min 22 s
Bit rate                                 : 34.2 kb/s
Count of elements                        : 1220
Stream size                              : 10.4 MiB (1%)
Language                                 : English
Default                                  : No
Forced                                   : No

Menu
00:00:00.000                             : en:Chapter 1
00:01:19.997                             : en:Chapter 2
00:04:57.672                             : en:Chapter 3
00:17:12.448                             : en:Chapter 4
00:25:33.407                             : en:Chapter 5
00:32:08.718                             : en:Chapter 6
00:36:06.414                             : en:Chapter 7
00:41:58.599                             : en:Chapter 8

Source Information
Release : Supernatural.S11.1080p.BluRay.REMUX.AVC.DTS-HD.MA.5.1-PrivateHD



Note from QxR:
Whilst we are happy for our releases to be re-posted on a platform we aren't on, please do so in an 'as-is' format. We ask that you do not create a new torrent, include all descriptions you see above including the QxR logo, tags, notes and screenshots. If you'd like to become a permanent poster on a website we don't post to, feel free to get in contact with a QxR member.
Category:TV > HEVC/x265
Lang:English  English
Total Size:28.56 GB
Info Hash:b5ac20eaf5599fae30936de45a03bf351b0f6d5c
Added By:QxR
Date Added:08-09-2018 10:14:58

Files

File List: 
 File Size
Featurettes/Deleted Scenes/Beyond the Mat_new.mkv25 MB
Featurettes/Deleted Scenes/Don't Call Me Shurley_new.mkv37 MB
Featurettes/Deleted Scenes/Hell's Angel_new.mkv29 MB
Featurettes/Deleted Scenes/O Brother Where Art Thou_new.mkv14 MB
Featurettes/Digital Magic - Enhancing the Sets with VFX_new.mkv110 MB
Featurettes/Gag Reel_new.mkv121 MB
Featurettes/Jensen Ackles on Directing The Bad Seed_new.mkv51 MB
Featurettes/On the Set with SPN - The Real Fan Contest_new.mkv44 MB
Featurettes/Supernatural - 2015 Comic-Con Panel_new.mkv815 MB
Featurettes/The Winchester Mythology - Shedding Light on the Darkness_new.mkv160 MB
Supernatural (2005) - S11E01 - Out of the Darkness, Into the Fire (1080p BluRay x265 Silence).mkv1.37 GB
Supernatural (2005) - S11E02 - Form and Void (1080p BluRay x265 Silence).mkv1.37 GB
Supernatural (2005) - S11E03 - The Bad Seed (1080p BluRay x265 Silence).mkv1.02 GB
Supernatural (2005) - S11E04 - Baby (1080p BluRay x265 Silence).mkv1.52 GB
Supernatural (2005) - S11E05 - Thin Lizzie (1080p BluRay x265 Silence).mkv1.22 GB
Supernatural (2005) - S11E06 - Our Little World (1080p BluRay x265 Silence).mkv1.23 GB
Supernatural (2005) - S11E07 - Plush (1080p BluRay x265 Silence).mkv1.12 GB
Supernatural (2005) - S11E08 - Just My Imagination (1080p BluRay x265 Silence).mkv1.07 GB
Supernatural (2005) - S11E09 - O Brother Where Art Thou (1080p BluRay x265 Silence).mkv1.14 GB
Supernatural (2005) - S11E10 - The Devil in the Details (1080p BluRay x265 Silence).mkv1.11 GB
Supernatural (2005) - S11E11 - Into the Mystic (1080p BluRay x265 Silence).mkv1.13 GB
Supernatural (2005) - S11E12 - Don’t You Forget about Me (1080p BluRay x265 Silence).mkv1.12 GB
Supernatural (2005) - S11E13 - Love Hurts (1080p BluRay x265 Silence).mkv1.05 GB
Supernatural (2005) - S11E14 - The Vessel (1080p BluRay x265 Silence).mkv1.22 GB
Supernatural (2005) - S11E15 - Beyond the Mat (1080p BluRay x265 Silence).mkv1.13 GB
Supernatural (2005) - S11E16 - Safe House (1080p BluRay x265 Silence).mkv1.09 GB
Supernatural (2005) - S11E17 - Red Meat (1080p BluRay x265 Silence).mkv1.17 GB
Supernatural (2005) - S11E18 - Hell's Angel (1080p BluRay x265 Silence).mkv1.12 GB
Supernatural (2005) - S11E19 - The Chitters (1080p BluRay x265 Silence).mkv1.30 GB
Supernatural (2005) - S11E20 - Don't Call Me Shurley (1080p BluRay x265 Silence).mkv1.07 GB
Supernatural (2005) - S11E21 - All In The Family (1080p BluRay x265 Silence).mkv1.17 GB
Supernatural (2005) - S11E22 - We Happy Few (1080p BluRay x265 Silence).mkv1.12 GB
Supernatural (2005) - S11E23 - Alpha and Omega (1080p BluRay x265 Silence).mkv1.32 GB



Loading...
Comments

There are currently no comments. Be the first one to write something !

Disclaimer: None of the files shown here are actually hosted or transmitted by this server. The links are provided solely by this site's users. The site moderation is also a service provided by the site's users. The administrator of this site (ettv.tv) cannot be held responsible for what its users post, or any other actions of its users. You may not use this site to distribute or download any material when you do not have the legal rights to do so. It is your own responsibility to adhere to these terms.

Sitemap