2160p arrow 2018 movies ita game of thrones house of cards titans s01e04 Supernatural Venom Incredibles 2 Outlander big bang theory español ddr ufc 230 UFC 2018 ITA ncis The Predator alpha Evo 0 the big bang theory s12e07 Empire ettv fabbriciani arrow español survivor Star Trek Discovery The Walking dead damerini Greys Anatomy ethd Doctor Who Supergirl haberkamp ita 2018 star trek discovery español dtone van helsing in mo yang WWE champian fulton It the flash titans seal team vikings blindspot coral egan shameless etrg etmovies venom ita evo office 2019 fgt Lucifer oceans eleven Big Bang Theory NFL Dtone great british bake off s09e10 ray donovan the nun The Equalizer 2 modern family Gotham A Discovery of Witches Outlander S04E01 hindi doctor who s11e05 the big bang theory 
Warning! Do not Download Without a VPN!
Your IP Address is .   Location is
Download and surf securely, stream unlimited and protect your personal data!
We strongly recommend using SpyOFF VPN!
Become Anonymous with SpyOFF
ETTV Recommended TV Shows
UFC 230 Cormier vs Lewis HDTV x264-Star [TJET] torrent
Ray.Donovan.S06E02.WEBRip.x264-PBS[ettv] torrent
Saturday.Night.Live.S44E04.Jonah.Hill.and.Maggie.Rogers.HDTV.x264-CRiMSON[ettv] torrent
Outlander.S04E01.WEB.H264-MEMENTO[ettv] torrent

ETTV Recommended Xvid
The.Meg.2018.BDRip.XviD.AC3-EVO[EtMovies] torrent
The.First.Date.2018.HDRip.XviD.AC3-EVO[EtMovies] torrent
BlacKkKlansman.2018.BRRip.XviD.AC3-EVO[EtMovies] torrent
The Hate U Give.2018.HC.HDRip.XviD.AC3-EVO[EtMovies] torrent

ETTV Recommended HD
The Marine 6.Close Quarters.720p.WEB-DL.H264.AC3-EVO[EtHD] torrent
The Hate U Give.2018.1080p.HC.HDRip.X264.AC3-EVO[EtHD] torrent
Generational.Sins.2017.1080p.AMZN.WEB-DL.DDP5.1.H.264-NTb[EtHD] torrent
Robin.Hood.The.Rebellion.2018.1080p.WEB-DL.DD5.1.H264-CMRG[EtHD] torrent

ETTV Recommended UHD
The.Matrix.Revolutions.2003.Multi.mUHD.2160p.x265.HDR.DD.5.1-DTOne torrent
The.Fog.1980.Multi.UHD.2160p.Bluray.x265.HDR.TS.5.1-DTOne torrent
They.Live.1988.Multi.UHD.2160p.Bluray.x265.HDR.DTS.5.1-DTOne torrent
Blade Runner 2049 (2017) 4K UHD BluRay x264 DTS Alien4 torrent

ETTV Recommended Cam
Hunter Killer 2018 HDCAM.XViD.AC3-ETRG torrent
Replicas 2018.HDCAM.x264.AC3-ETRG torrent
Bohemian Rhapsody 2018 HDCAM.XViD.AC3-ETRG torrent
The Nutcracker and the Four Realms 2018 HDCAM x264 AC3-ETRG torrent

ETTV Recommended Foreign
Raatchasan (2018) 720p x265 AAC 5.1 - DTOne torrent
Dans la brume 2018 1080p BluRay DD5.1 x264-SPEED[EtHD] torrent
Sleepy Hollow (1999) 720p BluRay x264 Dual Audio [Hindi DD5.1 - English DD5.1] - ESUB ~ Ranvijay torrent
5 Weddings 2018 PreDvd Hindi 720p x264 AAC - mkvCinemas torrent

Social


Download Torrent "Supernatural (2005) Season 10 S10 + Extras (1080p BluRay x265 HEVC 10bit AA..."

IMDB Details
Description:

N/A

Genre:

N/A

Download Torrent (Magnet)
Download Torrent (File)
Seeds: 127
Leechers: 808
Completed: 358 
Last Checked: 08-09-2018 10:13:54


Loading...
Details
Title:Supernatural (2005) Season 10 S10 + Extras (1080p BluRay x265 HEVC 10bit AA...
Description:


Encode Screenshots (Click for full quality)




Media Information
General
Format                                   : Matroska
Format version                           : Version 4 / Version 2
File size                                : 1.16 GiB
Duration                                 : 42 min 11 s
Overall bit rate                         : 3 933 kb/s
Encoded date                             : UTC 2018-06-14 02:11:09
Writing application                      : mkvmerge v20.0.0 ('I Am The Sun') 64-bit
Writing library                          : libebml v1.3.5 + libmatroska v1.4.8
Cover                                    : Yes
Attachments                              : cover.jpg
Writing frontend                         : StaxRip v1.7.0.6

Video
ID                                       : 1
Format                                   : HEVC
Format/Info                              : High Efficiency Video Coding
Format profile                           : Main [email protected]@Main
Codec ID                                 : V_MPEGH/ISO/HEVC
Duration                                 : 42 min 10 s
Bit rate                                 : 3 491 kb/s
Width                                    : 1 920 pixels
Height                                   : 1 080 pixels
Display aspect ratio                     : 16:9
Frame rate mode                          : Constant
Frame rate                               : 23.976 (24000/1001) FPS
Color space                              : YUV
Chroma subsampling                       : 4:2:0
Bit depth                                : 10 bits
Bits/(Pixel*Frame)                       : 0.070
Stream size                              : 1.03 GiB (89%)
Writing library                          : x265 2.8+3-450421921079:[Windows][MSVC 1900][64 bit] 10bit
Encoding settings                        : cpuid=1111039 / frame-threads=3 / numa-pools=8 / wpp / no-pmode / no-pme / no-psnr / no-ssim / log-level=2 / input-csp=1 / input-res=1920x1080 / interlace=0 / total-frames=60660 / level-idc=0 / high-tier=1 / uhd-bd=0 / ref=5 / no-allow-non-conformance / no-repeat-headers / annexb / no-aud / no-hrd / info / hash=0 / no-temporal-layers / open-gop / min-keyint=23 / keyint=250 / gop-lookahead=0 / bframes=8 / b-adapt=2 / b-pyramid / bframe-bias=0 / rc-lookahead=80 / lookahead-slices=4 / scenecut=40 / radl=0 / no-intra-refresh / ctu=64 / min-cu-size=8 / no-rect / no-amp / max-tu-size=32 / tu-inter-depth=1 / tu-intra-depth=1 / limit-tu=0 / rdoq-level=2 / dynamic-rd=0.00 / no-ssim-rd / signhide / no-tskip / nr-intra=0 / nr-inter=0 / no-constrained-intra / no-strong-intra-smoothing / max-merge=3 / limit-refs=3 / limit-modes / me=3 / subme=5 / merange=57 / temporal-mvp / weightp / weightb / no-analyze-src-pics / deblock=-3:-3 / no-sao / no-sao-non-deblock / rd=4 / no-early-skip / rskip / no-fast-intra / no-tskip-fast / no-cu-lossless / b-intra / no-splitrd-skip / rdpenalty=0 / psy-rd=1.50 / psy-rdoq=1.50 / no-rd-refine / no-lossless / cbqpoffs=0 / crqpoffs=0 / rc=crf / crf=19.5 / qcomp=0.60 / qpstep=4 / stats-write=0 / stats-read=0 / ipratio=1.40 / pbratio=1.30 / aq-mode=3 / aq-strength=1.00 / cutree / zone-count=0 / no-strict-cbr / qg-size=32 / no-rc-grain / qpmax=69 / qpmin=0 / no-const-vbv / sar=0 / overscan=0 / videoformat=5 / range=0 / colorprim=2 / transfer=2 / colormatrix=2 / chromaloc=0 / display-window=0 / max-cll=0,0 / min-luma=0 / max-luma=1023 / log2-max-poc-lsb=8 / vui-timing-info / vui-hrd-info / slices=1 / no-opt-qp-pps / no-opt-ref-list-length-pps / no-multi-pass-opt-rps / scenecut-bias=0.05 / no-opt-cu-delta-qp / no-aq-motion / no-hdr / no-hdr-opt / no-dhdr10-opt / no-idr-recovery-sei / analysis-reuse-level=5 / scale-factor=0 / refine-intra=0 / refine-inter=0 / refine-mv=0 / no-limit-sao / ctu-info=0 / no-lowpass-dct / refine-mv-type=0 / copy-pic=1 / max-ausize-factor=1.0 / no-dynamic-refine / no-single-sei
Default                                  : Yes
Forced                                   : No

Audio
ID                                       : 2
Format                                   : AAC
Format/Info                              : Advanced Audio Codec
Format profile                           : LC
Codec ID                                 : A_AAC
Duration                                 : 42 min 10 s
Bit rate                                 : 425 kb/s
Channel(s)                               : 6 channels
Channel positions                        : Front: L C R, Side: L R, LFE
Sampling rate                            : 48.0 kHz
Frame rate                               : 46.875 FPS (1024 spf)
Compression mode                         : Lossy
Delay relative to video                  : 20 ms
Stream size                              : 128 MiB (11%)
Language                                 : English
Default                                  : Yes
Forced                                   : No

Subtitle
ID                                       : 3
Format                                   : PGS
Muxing mode                              : zlib
Codec ID                                 : S_HDMV/PGS
Codec ID/Info                            : Picture based subtitle format used on BDs/HD-DVDs
Duration                                 : 41 min 51 s
Bit rate                                 : 34.0 kb/s
Count of elements                        : 1184
Stream size                              : 10.2 MiB (1%)
Language                                 : English
Default                                  : No
Forced                                   : No

Menu
00:00:00.000                             : en:Chapter 1
00:01:38.557                             : en:Chapter 2
00:03:01.056                             : en:Chapter 3
00:15:40.106                             : en:Chapter 4
00:23:06.218                             : en:Chapter 5
00:30:56.063                             : en:Chapter 6
00:38:16.878                             : en:Chapter 7
00:41:41.332                             : en:Chapter 8

Source Information
Release : Supernatural.S10.1080p.BluRay.REMUX.AVC.DTS-HD.MA.5.1-EPSiLON



Note from QxR:
Whilst we are happy for our releases to be re-posted on a platform we aren't on, please do so in an 'as-is' format. We ask that you do not create a new torrent, include all descriptions you see above including the QxR logo, tags, notes and screenshots. If you'd like to become a permanent poster on a website we don't post to, feel free to get in contact with a QxR member.
Category:TV > HEVC/x265
Lang:English  English
Total Size:30.41 GB
Info Hash:775e8cf65e1c5fe7ede71f86a7df5d5923712750
Added By:QxR
Date Added:08-09-2018 10:13:46

Files

File List: 
 File Size
Featurettes/A Very Special Supernatural Special_new.mkv416 MB
Featurettes/Deleted Scenes/Brother's Keeper_new.mkv37 MB
Featurettes/Deleted Scenes/Fan Fiction_new.mkv18 MB
Featurettes/Deleted Scenes/The Executioner's Song_new.mkv14 MB
Featurettes/Deleted Scenes/There's No Place Like Home_new.mkv17 MB
Featurettes/Gag Reel_new.mkv59 MB
Featurettes/Supernatural at Comic-Con 2014_new.mkv592 MB
Featurettes/Supernatural FANS documentary_new.mkv794 MB
Featurettes/Supernatural Theatre - Staging the 200th Episode_new.mkv313 MB
Featurettes/The Winchester Mythology Battling - The Mark and The Blade_new.mkv210 MB
Supernatural (2005) - S10E01 - Black (1080p BluRay x265 Silence).mkv1.16 GB
Supernatural (2005) - S10E02 - Reichenbach (1080p BluRay x265 Silence).mkv1.22 GB
Supernatural (2005) - S10E03 - Soul Survivor (1080p BluRay x265 Silence).mkv1.12 GB
Supernatural (2005) - S10E04 - Paper Moon (1080p BluRay x265 Silence).mkv1,000 MB
Supernatural (2005) - S10E05 - Fan Fiction (1080p BluRay x265 Silence).mkv1,021 MB
Supernatural (2005) - S10E06 - Ask Jeeves (1080p BluRay x265 Silence).mkv1.18 GB
Supernatural (2005) - S10E07 - Girls, Girls, Girls (1080p BluRay x265 Silence).mkv1.17 GB
Supernatural (2005) - S10E08 - Hibbing 911 (1080p BluRay x265 Silence).mkv1.16 GB
Supernatural (2005) - S10E09 - The Things We Left Behind (1080p BluRay x265 Silence).mkv1.14 GB
Supernatural (2005) - S10E10 - The Hunter Games (1080p BluRay x265 Silence).mkv1.29 GB
Supernatural (2005) - S10E11 - There's No Place Like Home (1080p BluRay x265 Silence).mkv1.31 GB
Supernatural (2005) - S10E12 - About a Boy (1080p BluRay x265 Silence).mkv1.21 GB
Supernatural (2005) - S10E13 - Halt & Catch Fire (1080p BluRay x265 Silence).mkv1.19 GB
Supernatural (2005) - S10E14 - The Executioner's Song (1080p BluRay x265 Silence).mkv1.17 GB
Supernatural (2005) - S10E15 - The Things They Carried (1080p BluRay x265 Silence).mkv1.24 GB
Supernatural (2005) - S10E16 - Paint It Black (1080p BluRay x265 Silence).mkv1,014 MB
Supernatural (2005) - S10E17 - Inside Man (1080p BluRay x265 Silence).mkv1.26 GB
Supernatural (2005) - S10E18 - Book of the Damned (1080p BluRay x265 Silence).mkv1.38 GB
Supernatural (2005) - S10E19 - The Werther Project (1080p BluRay x265 Silence).mkv1.56 GB
Supernatural (2005) - S10E20 - Angel Heart (1080p BluRay x265 Silence).mkv1.29 GB
Supernatural (2005) - S10E21 - Dark Dynasty (1080p BluRay x265 Silence).mkv1.18 GB
Supernatural (2005) - S10E22 - The Prisoner (1080p BluRay x265 Silence).mkv1.34 GB
Supernatural (2005) - S10E23 - Brother's Keeper (1080p BluRay x265 Silence).mkv1.46 GB



Loading...
Comments

There are currently no comments. Be the first one to write something !

Disclaimer: None of the files shown here are actually hosted or transmitted by this server. The links are provided solely by this site's users. The site moderation is also a service provided by the site's users. The administrator of this site (ettv.tv) cannot be held responsible for what its users post, or any other actions of its users. You may not use this site to distribute or download any material when you do not have the legal rights to do so. It is your own responsibility to adhere to these terms.

Sitemap