ncis daredevil Star Trek Discovery mr robot en español dtone High Castle s03e07 0 Mile 22 2160p It 1080p 2018 Survivor the flash s05e03 ettv the good doctor supergirl the walking dead Flash great british bake off s09e09 DTOne better call saul etmovies 9-1-1 s02e04 1080p YIFY Vikings Manifest doctor who it 2017 shameless legends of tomorrow the walking dead s09e03 Supernatural this is us wwe incredibles 2 flash s05e03 NFL family guy hindi Ufc evo star trek discovery español big bang theory español venom fgt ethd Ethd Arrow s07e02 greys anatomy mayans season complete the big bang theory the flash american horror story Scorpion empire porn windows 10 Game Of Thrones lethal weapon lucifer south park ddr big bang theory Evo etrg arrow 2018 ita blindspot walking dead ita 
Warning! Do not Download Without a VPN!
Your IP Address is .   Location is
Download and surf securely, stream unlimited and protect your personal data!
We strongly recommend using SpyOFF VPN!
Become Anonymous with SpyOFF
ETTV Recommended TV Shows
SEAL.Team.S02E04.HDTV.x264-SHiTSPREAD[ettv] torrent
Greys.Anatomy.S15E05.HDTV.x264-KILLERS[ettv] torrent
Chicago.Fire.S07E05.HDTV.x264-SVA[ettv] torrent
American.Horror.Story.S08E07.WEBRip.x264-TBS[ettv] torrent

ETTV Recommended Xvid
Mile.22.2018.HDRip.XviD.AC3-EVO[EtMovies] torrent
The.Scorpion.King.Book.of.Souls.2018.HDRip.XViD-ETRG torrent
BlacKkKlansman.2018.HDRip.XViD.AC3-ETRG torrent
A.Happening.of.Monumental.Proportions.2018.HDRip.XViD-ETRG torrent

ETTV Recommended HD
Incredibles.2.2018.1080p.WEB-DL.DD5.1.H264-CMRG[EtHD] torrent
BlacKkKlansman.2018.1080p.WEB-DL.DD5.1.H264-CMRG[EtHD] torrent
Scorpion.King.The.Book.of.Souls.2018.1080p.WEB-DL.H264.AC3-EVO[EtHD] torrent
Mile.22.2018.1080p.HDRip.X264.AC3-EVO[EtHD] torrent

ETTV Recommended UHD
Constantine.City.of.Demons.2018.2160p.BluRay.x265.10bit.HDR.DTS-HD.MA.5.1-SWTYBLZ[EtHD] torrent
Your.Name.2016.2160p.UHD.BluRay.x265-VALiS[EtHD] torrent
Peter.Rabbit.2018.PLDUB.DUAL.2160p.UHD.BluRay.x265-FLAME[EtHD] torrent
Death.Wish.2018 BluRay 2160p DTS MA5 1 x265 10bit-CHD[EtHD] torrent

ETTV Recommended Cam
Bad Times at the El Royale 2018.HDCAM.XViD.AC3-ETRG torrent
Goosebumps 2 Haunted Halloween 2018 HDTS.x264.AC3-ETRG torrent
Halloween 2018.HDCAM.XViD.AC3-ETRG torrent
Night School 2018 HDTS XViD AC3-ETRG torrent

ETTV Recommended Foreign
The Avengers Trilogy (2012-2018) 1080p BluRay x264 Dual Audio [Hindi - English] DD5.1 - ESUB ~ Ranvijay torrent
Naa.Bangaaru.Talli.2013.1080p.NF.WebDL.AVC.DDP.5.1-DTOne torrent
Insidious The Last Key (2017) 1080p BluRay x264 Dual Audio [Hindi DD5.1 640 Kbps - English DD5.1] - MSUBS ~ Ranvijay torrent
Chotay Shah 2016 Hindi Untouched WebDL 1080p x264 - mkvCinemas torrent

Social


Download Torrent "Supernatural (2005) Season 9 S09 + Extras (1080p BluRay x265 HEVC 10bit AAC..."

IMDB Details
Description:

N/A

Genre:

N/A

Download Torrent (Magnet)
Download Torrent (File)
Seeds: 138
Leechers: 889
Completed: 293 
Last Checked: 08-09-2018 10:11:12


Loading...
Details
Title:Supernatural (2005) Season 9 S09 + Extras (1080p BluRay x265 HEVC 10bit AAC...
Description:


Encode Screenshots (Click for full quality)




Media Information
General
Format                                   : Matroska
Format version                           : Version 4 / Version 2
File size                                : 1.20 GiB
Duration                                 : 42 min 14 s
Overall bit rate                         : 4 063 kb/s
Encoded date                             : UTC 2018-06-05 18:48:51
Writing application                      : mkvmerge v20.0.0 ('I Am The Sun') 64-bit
Writing library                          : libebml v1.3.5 + libmatroska v1.4.8
Cover                                    : Yes
Attachments                              : cover.jpg
Writing frontend                         : StaxRip v1.7.0.6

Video
ID                                       : 1
Format                                   : HEVC
Format/Info                              : High Efficiency Video Coding
Format profile                           : Main [email protected]@Main
Codec ID                                 : V_MPEGH/ISO/HEVC
Duration                                 : 42 min 13 s
Bit rate                                 : 3 597 kb/s
Width                                    : 1 920 pixels
Height                                   : 1 080 pixels
Display aspect ratio                     : 16:9
Frame rate mode                          : Constant
Frame rate                               : 23.976 (24000/1001) FPS
Color space                              : YUV
Chroma subsampling                       : 4:2:0
Bit depth                                : 10 bits
Bits/(Pixel*Frame)                       : 0.072
Stream size                              : 1.06 GiB (88%)
Writing library                          : x265 2.8+3-450421921079:[Windows][MSVC 1900][64 bit] 10bit
Encoding settings                        : cpuid=1111039 / frame-threads=3 / numa-pools=8 / wpp / no-pmode / no-pme / no-psnr / no-ssim / log-level=2 / input-csp=1 / input-res=1920x1080 / interlace=0 / total-frames=60745 / level-idc=0 / high-tier=1 / uhd-bd=0 / ref=5 / no-allow-non-conformance / no-repeat-headers / annexb / no-aud / no-hrd / info / hash=0 / no-temporal-layers / open-gop / min-keyint=23 / keyint=250 / gop-lookahead=0 / bframes=8 / b-adapt=2 / b-pyramid / bframe-bias=0 / rc-lookahead=80 / lookahead-slices=4 / scenecut=40 / radl=0 / no-intra-refresh / ctu=64 / min-cu-size=8 / no-rect / no-amp / max-tu-size=32 / tu-inter-depth=1 / tu-intra-depth=1 / limit-tu=0 / rdoq-level=2 / dynamic-rd=0.00 / no-ssim-rd / signhide / no-tskip / nr-intra=0 / nr-inter=0 / no-constrained-intra / no-strong-intra-smoothing / max-merge=3 / limit-refs=3 / limit-modes / me=3 / subme=5 / merange=57 / temporal-mvp / weightp / weightb / no-analyze-src-pics / deblock=-3:-3 / no-sao / no-sao-non-deblock / rd=4 / no-early-skip / rskip / no-fast-intra / no-tskip-fast / no-cu-lossless / b-intra / no-splitrd-skip / rdpenalty=0 / psy-rd=1.50 / psy-rdoq=1.00 / no-rd-refine / no-lossless / cbqpoffs=0 / crqpoffs=0 / rc=crf / crf=20.0 / qcomp=0.60 / qpstep=4 / stats-write=0 / stats-read=0 / ipratio=1.40 / pbratio=1.30 / aq-mode=3 / aq-strength=1.00 / cutree / zone-count=0 / no-strict-cbr / qg-size=32 / no-rc-grain / qpmax=69 / qpmin=0 / no-const-vbv / sar=0 / overscan=0 / videoformat=5 / range=0 / colorprim=2 / transfer=2 / colormatrix=2 / chromaloc=0 / display-window=0 / max-cll=0,0 / min-luma=0 / max-luma=1023 / log2-max-poc-lsb=8 / vui-timing-info / vui-hrd-info / slices=1 / no-opt-qp-pps / no-opt-ref-list-length-pps / no-multi-pass-opt-rps / scenecut-bias=0.05 / no-opt-cu-delta-qp / no-aq-motion / no-hdr / no-hdr-opt / no-dhdr10-opt / no-idr-recovery-sei / analysis-reuse-level=5 / scale-factor=0 / refine-intra=0 / refine-inter=0 / refine-mv=0 / no-limit-sao / ctu-info=0 / no-lowpass-dct / refine-mv-type=0 / copy-pic=1 / max-ausize-factor=1.0 / no-dynamic-refine / no-single-sei
Default                                  : Yes
Forced                                   : No

Audio
ID                                       : 2
Format                                   : AAC
Format/Info                              : Advanced Audio Codec
Format profile                           : LC
Codec ID                                 : A_AAC
Duration                                 : 42 min 14 s
Bit rate                                 : 431 kb/s
Channel(s)                               : 6 channels
Channel positions                        : Front: L C R, Side: L R, LFE
Sampling rate                            : 48.0 kHz
Frame rate                               : 46.875 FPS (1024 spf)
Compression mode                         : Lossy
Delay relative to video                  : 20 ms
Stream size                              : 130 MiB (11%)
Language                                 : English
Default                                  : Yes
Forced                                   : No

Subtitle
ID                                       : 3
Format                                   : PGS
Muxing mode                              : zlib
Codec ID                                 : S_HDMV/PGS
Codec ID/Info                            : Picture based subtitle format used on BDs/HD-DVDs
Duration                                 : 42 min 2 s
Bit rate                                 : 70.7 kb/s
Count of elements                        : 1451
Stream size                              : 21.3 MiB (2%)
Language                                 : English
Default                                  : No
Forced                                   : No

Menu
00:00:00.000                             : en:Chapter 1
00:01:40.517                             : en:Chapter 2
00:03:24.329                             : en:Chapter 3
00:14:34.749                             : en:Chapter 4
00:22:58.419                             : en:Chapter 5
00:30:21.862                             : en:Chapter 6
00:36:43.451                             : en:Chapter 7
00:41:43.793                             : en:Chapter 8

Source Information
Release : Supernatural.S09.1080p.BluRay.REMUX.AVC.DTS-HD.MA.5.1-EPSiLON



Note from QxR:
Whilst we are happy for our releases to be re-posted on a platform we aren't on, please do so in an 'as-is' format. We ask that you do not create a new torrent, include all descriptions you see above including the QxR logo, tags, notes and screenshots. If you'd like to become a permanent poster on a website we don't post to, feel free to get in contact with a QxR member.
Category:TV > HEVC/x265
Lang:English  English
Total Size:28.67 GB
Info Hash:d6920559874971f4cac7cd0dfc4ec92ff81ea23f
Added By:QxR
Date Added:08-09-2018 10:11:02

Files

File List: 
 File Size
Featurettes/2013 Comic-Con Panel.mkv731 MB
Featurettes/Behind the Scenes of Supernatural - A Fan’s Perspective.mkv362 MB
Featurettes/Crow’s Nest Tour.mkv37 MB
Featurettes/Deleted Scenes/King of the Damned.mkv10 MB
Featurettes/Deleted Scenes/Meta Fiction.mkv22 MB
Featurettes/Designing the Men of Letters Bunker.mkv139 MB
Featurettes/Gag Reel.mkv64 MB
Featurettes/Library Tour.mkv41 MB
Featurettes/Men of Letters - The Winchester Legacy.mkv158 MB
Featurettes/Room 7B.mkv23 MB
Featurettes/Supernatural Bound by Blood - Decisions and Consequences.mkv177 MB
Supernatural (2005) - S09E01 - I Think I'm Gonna Like It Here (1080p BluRay x265 Silence).mkv1.20 GB
Supernatural (2005) - S09E02 - Devil May Care (1080p BluRay x265 Silence).mkv1.15 GB
Supernatural (2005) - S09E03 - I'm No Angel (1080p BluRay x265 Silence).mkv1.07 GB
Supernatural (2005) - S09E04 - Slumber Party (1080p BluRay x265 Silence).mkv1,003 MB
Supernatural (2005) - S09E05 - Dog Dean Afternoon (1080p BluRay x265 Silence).mkv1,009 MB
Supernatural (2005) - S09E06 - Heaven Can't Wait (1080p BluRay x265 Silence).mkv1.04 GB
Supernatural (2005) - S09E07 - Bad Boys (1080p BluRay x265 Silence).mkv1.05 GB
Supernatural (2005) - S09E08 - Rock and a Hard Place (1080p BluRay x265 Silence).mkv1.09 GB
Supernatural (2005) - S09E09 - Holy Terror (1080p BluRay x265 Silence).mkv1.07 GB
Supernatural (2005) - S09E10 - Road Trip (1080p BluRay x265 Silence).mkv1.27 GB
Supernatural (2005) - S09E11 - First Born (1080p BluRay x265 Silence).mkv1.35 GB
Supernatural (2005) - S09E12 - Sharp Teeth (1080p BluRay x265 Silence).mkv1.31 GB
Supernatural (2005) - S09E13 - The Purge (1080p BluRay x265 Silence).mkv1.24 GB
Supernatural (2005) - S09E14 - Captives (1080p BluRay x265 Silence).mkv1.11 GB
Supernatural (2005) - S09E15 - #THINMAN (1080p BluRay x265 Silence).mkv1.18 GB
Supernatural (2005) - S09E16 - Blade Runners (1080p BluRay x265 Silence).mkv1.25 GB
Supernatural (2005) - S09E17 - Mother's Little Helper (1080p BluRay x265 Silence).mkv1.07 GB
Supernatural (2005) - S09E18 - Meta Fiction (1080p BluRay x265 Silence).mkv1.06 GB
Supernatural (2005) - S09E19 - Alex Annie Alexis Ann (1080p BluRay x265 Silence).mkv1.28 GB
Supernatural (2005) - S09E20 - Bloodlines (1080p BluRay x265 Silence).mkv1.23 GB
Supernatural (2005) - S09E21 - King of the Damned (1080p BluRay x265 Silence).mkv1.36 GB
Supernatural (2005) - S09E22 - Stairway to Heaven (1080p BluRay x265 Silence).mkv1.18 GB
Supernatural (2005) - S09E23 - Do You Believe in Miracles (1080p BluRay x265 Silence).mkv1.42 GB



Loading...
Comments

There are currently no comments. Be the first one to write something !

Disclaimer: None of the files shown here are actually hosted or transmitted by this server. The links are provided solely by this site's users. The site moderation is also a service provided by the site's users. The administrator of this site (ettv.tv) cannot be held responsible for what its users post, or any other actions of its users. You may not use this site to distribute or download any material when you do not have the legal rights to do so. It is your own responsibility to adhere to these terms.

Sitemap